https://i112.fastpic.ru/big/2020/0612/b3/2a021c257c5a85be5d87e676e3d20fb3.jpg

Neel Sarode - Funnel Designer (2020)
WEBRip | English | MP4 + PDF Guides | 1920 x 1080 | AVC ~487 Kbps | 30 fps
AAC | 128 Kbps | 44.1 KHz | 2 channels | ~7 hours | 5.95 GB
Genre: eLearning Video / Business, Sales, Marketing
1. Deployment Learn the quickest and easiest method to get a new WordPress Website up and running. Also learn how to install the relevant tools like the site theme, page builder (Elementor), and more.

2. Design Principles
Learn design principles and standards you should employ when building out websites to ensure that every site you design is visually appealing and easy to use as possible. The goal is to create a beautiful & easy-to-follow clear path to conversion.
3. Layouts on Elementor
Learn the interface specific in's and out's of Elementor and it's layouts, by mastering sections, columns, spacing, and more. Also get an insider look at how you can use resources Elementor provides to speed up your design work-flow
4. Elementor Design Mastery
By learning all the specific design tools available in Elementor, you can learn to create any website that you can imagine on WordPress with ease. Mastery of these tools are what creates a 'master of their craft'
5. Custom Fonts
Learn the easiest and simplest method to load a custom font into your WordPress site and start using it in Elementor as soon as possible!
6. Planning & Building for Success
Learn my exact processes from start to finish that I use to build out 5 figure websites for clients that pay that I'm worth. These processes include specific techniques and strategies to ensure that you'll be able to design world-class websites in HOURS, not weeks.
7. Creating Design Mockups
Every great design ALWAYS starts out with a mockup. Learn how I use a tool called Sketch to create breath-taking web designs that I then am able to transfer over and build out on WordPress with Elementor in a matter of hours.
8. Creating Better Imagery
Graphics are some of the most important parts of the aesthetics of a website, and can make or break your design. Learn specific techniques and tricks I use to build beautiful world-class graphics like you see here in a matter of minutes.
9. My Tools & Resources
Your tools can completely change a 5 hour website build into a 50 hour website build. By knowing the right tools & resources, you can significantly cut build times and design better-looking websites in hours, rather than days.

General
Complete name : Creating Better Footers on Elementor.mp4
Format : MPEG-4
Format profile : Base Media
Codec ID : isom (isom/iso2/avc1/mp41)
File size : 14.7 MiB
Duration : 3 min 15 s
Overall bit rate mode : Variable
Overall bit rate : 632 kb/s
Part : 0
Track name : Creating Better Footers on Elementor
AppleStoreCatalogID : 0
Xtra : WM/Category

Video
ID  : 1
Format : AVC
Format/Info : Advanced Video Codec
Format profile :
Format settings : CABAC / 4 Ref Frames
Format settings, CABAC : Yes
Format settings, RefFrames : 4 frames
Codec ID : avc1
Codec ID/Info : Advanced Video Coding
Duration : 3 min 15 s
Bit rate : 487 kb/s
Width : 1 920 pixels
Height : 1 080 pixels
Display aspect ratio : 16:9
Frame rate mode : Constant
Frame rate : 30.000 FPS
Color space : YUV
Chroma subsampling : 4:2:0
Bit depth : 8 bits
Scan type : Progressive
Bits/(Pixel*Frame) : 0.008
Stream size : 11.3 MiB (77%)
Title : Core Media Video
Writing library : x264 core 155
Encoding settings : cabac=1 / ref=4 / deblock=1:0:0 / analyse=0x3:0x113 / me=umh / subme=8 / psy=1 / psy_rd=1.00:0.00 / mixed_ref=1 / me_range=16 / chroma_me=1 / trellis=1 / 8x8dct=1 / cqm=0 / deadzone=21,11 / fast_pskip=1 / chroma_qp_offset=-2 / threads=12 / lookahead_threads=2 / sliced_threads=0 / nr=0 / decimate=1 / interlaced=0 / bluray_compat=0 / constrained_intra=0 / bframes=3 / b_pyramid=2 / b_adapt=2 / b_bias=0 / direct=3 / weightb=1 / open_gop=0 / weightp=2 / keyint=90 / keyint_min=46 / scenecut=0 / intra_refresh=0 / rc_lookahead=40 / rc=crf / mbtree=1 / crf=23.0 / qcomp=0.60 / qpmin=10 / qpmax=51 / qpstep=4 / vbv_maxrate=5625 / vbv_bufsize=5625 / crf_max=0.0 / nal_hrd=none / filler=0 / ip_ratio=1.41 / aq=1:1.00
Color range : Limited
Color primaries : BT.709
Menus : 3

Audio
ID : 2
Format : AAC
Format/Info : Advanced Audio Codec
Format profile : LC
Codec ID : mp4a-40-2
Duration : 3 min 15 s
Duration_LastFrame : -1 ms
Bit rate mode : Variable
Bit rate : 128 kb/s
Maximum bit rate : 134 kb/s
Channel(s) : 2 channels
Channel positions : Front: L R
Sampling rate : 44.1 kHz
Frame rate : 43.066 FPS (1024 SPF)
Compression mode : Lossy
Stream size : 2.99 MiB (20%)
Title : Core Media Audio
Default : Yes
Alternate group : 1

Menu
ID : 3
Codec ID : text
Duration : 3 min 15 s
Encoded date : UTC 2020-05-25 14:16:31
Tagged date : UTC 2020-05-25 14:16:31
Menu For : 1
00:00:00.000 : Chapter 1
DOWNLOAD
(Buy premium account for maximum speed and resuming ability)

Code:
http://nitroflare.com/view/5F4DD7E2DCD7ABE/htidf.Neel.Sarode..Funnel.Designer.2020.part1.rar
http://nitroflare.com/view/337011E4A9A472A/htidf.Neel.Sarode..Funnel.Designer.2020.part2.rar
http://nitroflare.com/view/A6FFE6E20041561/htidf.Neel.Sarode..Funnel.Designer.2020.part3.rar
http://nitroflare.com/view/A6BFDC4034A016D/htidf.Neel.Sarode..Funnel.Designer.2020.part4.rar
http://nitroflare.com/view/71471348C92426D/htidf.Neel.Sarode..Funnel.Designer.2020.part5.rar
http://nitroflare.com/view/0CB534C06E2604F/htidf.Neel.Sarode..Funnel.Designer.2020.part6.rar
http://nitroflare.com/view/4DFCADEC1CE46DE/htidf.Neel.Sarode..Funnel.Designer.2020.part7.rar


Code:
https://rapidgator.net/file/89e46c1b7217f93df3a20b454f1b0d82/htidf.Neel.Sarode..Funnel.Designer.2020.part1.rar
https://rapidgator.net/file/475e1717cd95e7d2333cd8803aba7869/htidf.Neel.Sarode..Funnel.Designer.2020.part2.rar
https://rapidgator.net/file/aea095da40177e968f27863045e13057/htidf.Neel.Sarode..Funnel.Designer.2020.part3.rar
https://rapidgator.net/file/d5a24c71b93392e024f07e24a839d050/htidf.Neel.Sarode..Funnel.Designer.2020.part4.rar
https://rapidgator.net/file/7642ba66d05c8a5f50b2e2d3ae5dce85/htidf.Neel.Sarode..Funnel.Designer.2020.part5.rar
https://rapidgator.net/file/cde26386e99d47b5af52b63ffc93bf31/htidf.Neel.Sarode..Funnel.Designer.2020.part6.rar
https://rapidgator.net/file/2630d8bfe10423227bfe897e25d7b5f3/htidf.Neel.Sarode..Funnel.Designer.2020.part7.rar